DiscoverRTE - REMIX
RTE - REMIX
Claim Ownership

RTE - REMIX

Author: Robert

Subscribed: 4Played: 18
Share

Description

Enjoy the music in the MIX
29 Episodes
Reverse
OCTOBER 2020 REMIX by RTE

OCTOBER 2020 REMIX by RTE

2020-09-2601:01:12

TRACK 01 AUDIO TITLE "Hear Me Tonight" PERFORMER "Alok & THRDL!FE" INDEX 01 00:00:09 TRACK 02 AUDIO TITLE "One Night" PERFORMER "MK & Sonny Fodera & Raphaella" INDEX 01 00:01:34 TRACK 03 AUDIO TITLE "Breaking Me" PERFORMER "Topic feat. A7S" INDEX 01 00:04:29 TRACK 04 AUDIO TITLE "One Thing Right" PERFORMER "Marshmello & Kane Brown" INDEX 01 00:05:47 TRACK 05 AUDIO TITLE "Secrets" PERFORMER "Regard & RAYE" INDEX 01 00:07:45 TRACK 06 AUDIO TITLE "EXHALE" PERFORMER "Kenzie feat. Sia" INDEX 01 00:09:23 TRACK 07 AUDIO TITLE "Despacito" PERFORMER "Luis Fonsi" INDEX 01 00:10:23 TRACK 08 AUDIO TITLE "Headnoise (Get Hype)" PERFORMER "Martin Ikin Ft. Dope Earth Alien" INDEX 01 00:12:58 TRACK 09 AUDIO TITLE "SA-MY-D" PERFORMER "Hedegaard & Matt Hawk" INDEX 01 00:16:32 TRACK 10 AUDIO TITLE "Kamikaze" PERFORMER "Reece Low " INDEX 01 00:18:34 TRACK 11 AUDIO TITLE "Embargo" PERFORMER "Armin van Buuren with Cosmic Gate" INDEX 01 00:20:38 TRACK 12 AUDIO TITLE "Alarm" PERFORMER "Md Dj" INDEX 01 00:22:40 TRACK 13 AUDIO TITLE "Downtown" PERFORMER "Fritz Jong" INDEX 01 00:24:42 TRACK 14 AUDIO TITLE "Finally" PERFORMER "Julian The Angel" INDEX 01 00:27:44 TRACK 15 AUDIO TITLE "Someone Like You" PERFORMER "Klaas" INDEX 01 00:30:46 TRACK 16 AUDIO TITLE "I Need To Know" PERFORMER "Jon Van Dee" INDEX 01 00:32:44 TRACK 17 AUDIO TITLE "Ava Max - Kings & Queens" INDEX 01 00:35:15 TRACK 18 AUDIO TITLE "I Need To Know" PERFORMER "Jon Van Dee" INDEX 01 00:35:43 TRACK 19 AUDIO TITLE "Hit The Road Jack" PERFORMER "Ray Charles" INDEX 01 00:37:18 TRACK 20 AUDIO TITLE "Smoke Everyday" PERFORMER "Gary Caos" INDEX 01 00:38:34 TRACK 21 AUDIO TITLE "Bum Bum Tam Tam" PERFORMER "MC Fioti, Future, J Balvin, Stefflon Don, Juan Magan" INDEX 01 00:41:36 TRACK 22 AUDIO TITLE "Vem Com Bumbum" PERFORMER "MC Fioti" INDEX 01 00:41:51 TRACK 23 AUDIO TITLE "Summer Vibes" PERFORMER "Holter & Mogyoro" INDEX 01 00:43:39 TRACK 24 AUDIO TITLE "Yemanja" PERFORMER "Leandro Da Silva" INDEX 01 00:46:52 TRACK 25 AUDIO TITLE "Never Look Back" PERFORMER "Boris Brejcha" INDEX 01 00:48:12 TRACK 26 AUDIO TITLE "Boogie 2 Nite" PERFORMER "Luca Cassani & Ricky Castelli feat. Ellie Madison" INDEX 01 00:54:28 TRACK 27 AUDIO TITLE "Keep On" PERFORMER "Jay Frog & Hoxtones" INDEX 01 00:56:25 TRACK 28 AUDIO TITLE "Rumore" PERFORMER "Qubiko" INDEX 01 00:58:13
SEPT 2020 REMIX by RTE

SEPT 2020 REMIX by RTE

2020-09-0157:02

RTE REMIX 09/2020
AUGUST 2020 Remix by RTE

AUGUST 2020 Remix by RTE

2020-08-0201:02:07

music@cabbeweide.nl
RTE
MAY 2020 REMIX by RTE

MAY 2020 REMIX by RTE

2020-04-2201:03:11

APRIL 2020 REMIX by RTE

APRIL 2020 REMIX by RTE

2020-04-0101:04:25

RTE
MARCH 2020 Remix by RTE

MARCH 2020 Remix by RTE

2020-03-0401:00:16

RTE REMIX
RTE
RTE END OF YEAR 2K19 REMIX

RTE END OF YEAR 2K19 REMIX

2019-12-1201:02:131

NOVEMBER 2019_2

NOVEMBER 2019_2

2019-11-0442:29

RTE
RTE
RTE
RTE
JULY 2019 REMIX

JULY 2019 REMIX

2019-06-2601:03:00

RTE
JUNE 2019 DEEP HOUSE MIX

JUNE 2019 DEEP HOUSE MIX

2019-05-3001:00:21

MAY 2019 REMIX by RTE

MAY 2019 REMIX by RTE

2019-04-1852:38

loading
Comments 
Download from Google Play
Download from App Store